#TITLE:Emerald Hill Zone;
#SUBTITLE:Sonic The Hedgehog;
#ARTIST:Sega;
#TITLETRANSLIT:;
#SUBTITLETRANSLIT:;
#ARTISTTRANSLIT:;
#CREDIT:;
#BANNER:Emerald Hill Zone.jpg;
#BACKGROUND:Emerald Hill Zone-bg .jpg;
#LYRICSPATH:;
#CDTITLE:!gloveTitle.png;
#MUSIC:Emerald Hill Zone.mp3;
#OFFSET:-0.459;
#SAMPLESTART:50.000;
#SAMPLELENGTH:12.000;
#SELECTABLE:YES;
#BPMS:0.000=138.750;
#STOPS:;
#BGCHANGES:;
// cache tags:
#FIRSTBEAT:0.000;
#LASTBEAT:222.500;
#SONGFILENAME:Songs/Music V.I.P ^_^/Emerald Hill Zone (GLoVE)/Emerald Hill Zone.sm;
#HASMUSIC:1;
#HASBANNER:1;
#MUSICLENGTH:100.780;
// end cache tags

//---------------dance-single - ----------------
#NOTES:
     dance-single:
     :
     Hard:
     11:
     1.000,1.000,1.000,1.000,0.824,563.000,131.000,116.000,0.000,1.000:



2001
0000
3000
1002
0000
0000
0010
0100
1000
0100
0010
0100
1000
0100
0013
0100
,
2010
0001
0010
0100
0010
0001
0010
0100
3012
0100
1000
0100
0010
0100
1000
0100
,
0013
0000
1000
0000
0010
0000
0100
0000
0002
0000
0003
0100
0000
1000
0100
0010
,
0001
0000
0100
0000
0010
0000
1000
0000
0200
0000
0300
0010
0000
0010
0100
1000
,
0010
0000
0100
0000
0100
0000
0010
0000
0002
0000
0003
0010
0000
0001
1000
0010
,
1000
0000
0001
0010
0200
0300
0010
0100
2000
3000
0100
1000
0020
0030
1000
0001
,
0010
0000
0100
0000
0001
0000
0100
0000
2000
0000
3000
0100
0000
0010
1000
0100
,
0010
0000
1000
0000
0010
0000
1000
0000
0002
0000
0003
0010
0000
0100
0001
1000
,
0100
0000
1000
0000
0001
0000
0010
0000
0200
0000
0300
0010
0000
0001
0100
0010
,
1000
0000
1000
0100
0020
0030
0100
0010
0002
0003
0010
0001
0200
0300
0001
1000
,
0010
0000
1010
0000
0011
0000
1100
0000
0102
0000
1003
0010
0100
0001
1100
0010
,
1001
0000
0210
0000
0301
0000
2000
0000
0200
0000
0300
3010
0000
0010
0100
0001
,
0010
0000
0110
0000
0101
0000
1010
0000
1002
0000
1003
0010
0100
1010
0001
0010
,
2000
0000
0001
0010
0200
0300
0001
0100
0020
0030
0100
0001
0020
0030
3100
0001
,
0010
0000
1100
0000
0011
0000
0110
0000
2001
0000
3010
0100
0001
0010
1001
0100
,
1010
0000
2010
0000
3001
0000
1200
0000
0020
0000
0030
0301
0000
0100
1000
0001
,
0100
0000
1010
0000
0101
0000
1010
0000
0201
0000
0301
1000
0100
0011
1000
0010
,
1002
0000
1000
0100
0020
0030
0100
0010
2000
3000
0010
1000
0200
0300
0013
1000
,
0102
0000
1000
0000
0100
0003
1100
0000
0010
0000
0001
0000
1010
0000
0011
0000
,
0110
0000
0110
1000
0010
0000
0100
0000
1001
0000
1001
0100
0001
0000
1000
0000
,
0010
1000
0110
1010
0101
1001
0110
1001
,
0110
0110
0100
0011
1000
0100
1000
0100
,
2010
0001
3010
0101
1000
0010
1001
0110
,
0011
0000
0011
0100
0001
0000
0100
0000
1001
0000
1001
0100
1000
0000
0001
0000
,
1100
0010
0000
2002
0000
0000
0000
0000
0000
0000
0000
0000
0000
0000
0000
3003
,
1000
0010
0100
0001
1000
0001
0100
0010
1000
0001
1000
0010
0100
0001
0100
0001
,
0010
0000
1001
0000
0011
0000
1100
0000
0102
0000
0013
0100
1000
0101
1000
0010
,
0100
0000
0201
0000
0310
0000
1001
0000
0220
0000
0330
0011
0000
0010
0100
1000
,
0010
0000
0100
0000
0100
0001
0010
0100
1002
0000
0103
0010
1000
0011
1000
0001
,
2000
0000
0001
0010
0200
0300
0010
0100
0002
0003
0100
0001
0020
0030
3100
0001
,
0010
0000
0101
0000
1001
0000
0110
0000
2001
0000
3010
0100
0001
0110
1000
0100
,
0010
0000
1002
0000
0103
0000
1010
0000
2002
0000
3003
0110
0000
0100
0001
1000
,
0100
0000
1000
0000
0010
0100
0010
1000
0200
0000
1300
0010
0100
1010
0100
0010
,
2000
0000
0001
0100
0020
0030
0100
0010
0002
0003
0010
0001
0200
0300
3001
0100
,
0010
0000
0012
0003
2010
3000
0102
0003
0220
0030
0302
1003
0200
1300
0012
1003
,
0210
0300
1002
0000
1003
0000
0012
0000
2000
0000
3000
0100
0000
1000
0103
0010
,
0100
0000
0000
0000
0201
0000
0300
0000
0021
0000
0030
0000
2001
0000
3000
0000
0220
0000
0300
0000
2030
0000
3001
0000
0020
0030
1200
0000
0010
0000
1300
0000
,
0012
0000
0010
1000
0200
0300
1000
0100
0020
0030
1000
0010
2000
3000
0013
0100
,
1000
0000
1002
0003
1200
0300
1002
0003
2020
3000
0230
0301
0020
0130
2010
3100
,
0012
0003
0120
0000
0130
0000
0002
0000
0200
0000
0300
1000
0000
0010
0103
0010
,
0001
0000
0000
0000
0120
0000
0030
0000
0201
0000
0300
0000
2010
0000
3000
0000
0202
0000
0300
0000
0023
0000
0031
0000
2000
3000
0210
0000
0001
0000
0310
0000
,
1002
0000
0010
0100
2000
3000
0010
1000
0200
0300
0010
0100
2000
3000
0103
0010
,
2001
0000
0100
0000
0001
3000
0110
0000
1000
0000
0010
0000
1001
0000
1010
0000
,
0101
0000
0110
0001
0100
0000
0010
0000
1001
0000
0110
0001
1000
0000
0100
0000
,
0001
0010
0101
0110
1001
1010
1100
0110
,
1001
0100
0001
1100
0010
0100
0010
0100
,
2010
0001
3010
0101
1000
0010
1001
0101
,
1001
0000
0011
0100
0001
0000
0010
0000
1001
0000
1001
0100
1000
0000
0001
0000
,
1001
0010
0000
2002
0000
0000
0000
0000
0000
0000
0000
0000
0000
0000
3003
0000
,
0001
1000
0010
1000
0001
0100
0001
0100
0010
1000
0001
0100
0001
1000
0010
0100
,
0001
0000
0100
0000
0001
0000
0010
0000
2000
0000
3000
0010
0000
0100
0010
0001
,
1000
0000
0010
0000
1000
0000
0100
0000
0020
0000
0030
0001
0000
0001
0010
0100
,
0001
0000
0010
0000
0010
0000
0001
0000
2000
0000
3000
0001
0000
1000
0100
0010
,
0100
0000
1000
0001
0020
0030
0001
0010
0200
0300
0010
0100
2000
3000
0010
0100
,
0001
0000
0010
0000
0100
0000
0010
0000
0200
0000
0300
0010
0000
0001
0100
0010
,
1000
0100
0001
0100
0020
0030
0000
0000
;
